#TITLE:Xuxa;
#SUBTITLE:;
#ARTIST:☺;
#TITLETRANSLIT:;
#SUBTITLETRANSLIT:;
#ARTISTTRANSLIT:;
#CREDIT:;
#BANNER:Xuxa-banner.png;
#BACKGROUND:Xuxa-bg.png;
#LYRICSPATH:;
#CDTITLE:;
#MUSIC:Smiley - Xuxa.ogg;
#OFFSET:-0.009;
#SAMPLESTART:12.000;
#SAMPLELENGTH:12.900;
#SELECTABLE:YES;
#BPMS:0.000=160.000;
#STOPS:96.000=0.375
,97.000=0.375
,310.000=0.375
,311.000=0.375
;
#BGCHANGES:0.000=Xuxa-bg.png=1.000=0=0=1,
16.000=vol4-21-ntsc.mpg=1.000=0=0=1,
32.000=vol3-11-ntsc.mpg=1.000=0=0=1,
48.000=vol3-08-ntsc.mpg=1.000=0=0=1,
64.000=VOL1-48-NTSC.mpg=1.000=0=0=1,
80.000=VOL1-34-NTSC.mpg=1.000=0=0=1,
95.938=duck1.png=1.000=0=0=1,
96.938=duck2.png=1.000=0=0=1,
97.938=duck3.png=1.000=0=0=1,
101.000=duck4.png=1.000=0=0=1,
102.000=VOL1-18-NTSC.mpg=1.000=0=0=1,
118.000=VOL1-08-NTSC.mpg=1.000=0=0=1,
134.000=VOL1-15-NTSC.mpg=1.000=0=0=1,
150.000=vol3-17-ntsc.mpg=1.000=0=0=1,
166.000=VOL1-35-NTSC.mpg=1.000=0=0=1,
182.000=vol3-19-ntsc.mpg=1.000=0=0=1,
198.000=vol4-04-ntsc.mpg=1.000=0=0=1,
206.000=vol3-16-ntsc.mpg=1.000=0=0=1,
214.000=VOL4-18-NTSC.mpg=1.000=0=0=1,
230.000=vol4-21-ntsc.mpg=1.000=0=0=1,
246.000=vol3-08-ntsc.mpg=1.000=0=0=1,
262.000=VOL1-34-NTSC.mpg=1.000=0=0=1,
278.000=VOL1-48-NTSC.mpg=1.000=0=0=1,
294.000=VOL3-23-NTSC.mpg=1.000=0=0=1,
309.938=duck1.png=1.000=0=0=1,
310.938=duck2.png=1.000=0=0=1,
311.938=duck4.png=1.000=0=0=1,
315.000=Xuxa-bg.png=1.000=0=0=1,
315.500=Xuxa-bg.png=1.000=0=0=1,
99999=-nosongbg-=1.000=0=0=0 // don't automatically add -songbackground-
;
// cache tags:
#FIRSTBEAT:0.000;
#LASTBEAT:315.500;
#SONGFILENAME:Songs/SDO pack 4/Xuxa/Xuxa.sm;
#HASMUSIC:1;
#HASBANNER:1;
#MUSICLENGTH:121.359;
// end cache tags

//---------------dance-single - K. Ward----------------
#NOTES:
     dance-single:
     K. Ward:
     Easy:
     3:
     0.252,0.259,0.016,0.000,0.000,212.000,2.000,0.000,0.000,0.000:















0000
0000
0000
0000
,
0000
0000
0000
0000
,
0000
0000
0000
0000
,
0000
0000
0000
0000
,
0001
1000
0010
1000
,
0010
0010
0000
0000
,
1000
0001
1000
0100
,
0100
0000
0000
0000
,
0001
0100
0001
0100
,
0001
0000
0100
0000
,
0001
0001
1000
1000
,
1000
0000
0010
0000
,
1000
1000
0001
0100
,
0010
0000
0100
0000
,
0001
0001
1000
0001
,
1000
0000
0000
0000
,
1000
0100
1000
0010
,
1000
0100
0100
0000
,
1000
1000
0010
1000
,
1000
0010
0010
0000
,
1000
0100
1000
0001
,
1000
0010
0010
0000
,
1000
0100
1000
0010
,
0100
0000
0001
1000
,
0001
0001
0001
1000
,
0001
0000
1000
0000
,
0010
0000
1000
0000
,
0010
0100
0001
0000
,
0100
0000
0010
0000
,
1000
1000
0001
0000
,
1000
0000
0010
0000
,
0100
0100
0001
0000
,
0100
0000
0010
0010
,
0010
0010
1000
0000
,
1000
0000
0010
0000
,
0100
0100
0001
0000
,
1000
0000
0010
0000
,
0100
0100
0001
0000
,
1000
0000
0100
0000
,
1000
1000
1000
0000
,
0010
0000
1000
0010
,
0100
0010
1000
0000
,
0000
0000
0100
0000
,
0000
0000
1000
0000
,
1000
0000
0010
0000
,
0000
0000
0010
0100
,
0010
0100
0010
0000
,
0010
0000
0100
0010
,
0100
0010
0100
0000
,
0100
0000
0001
0000
,
1000
0000
0010
0000
,
0000
0000
1000
0001
,
1000
0001
1000
0000
,
1001
0000
0001
0000
,
0001
0000
0100
0000
,
0001
1000
0001
0000
,
1000
0000
1000
0000
,
0001
0000
0001
0100
,
0001
0100
0001
0100
,
0010
0100
0001
0000
,
1000
0000
1001
0000
,
0000
0000
0001
0100
,
0001
0100
0001
0000
,
0100
0000
0001
0001
,
1000
1000
1000
0000
,
0010
0000
1000
1000
,
0001
0100
0010
0000
,
0100
0000
0001
0001
,
1000
0001
1000
1000
,
0000
0000
1000
0100
,
1000
0010
1000
0100
,
1000
0000
0001
0001
,
0100
0001
0001
0100
,
0001
0000
1000
0100
,
1000
0001
1000
0010
,
0010
0000
1000
0100
,
1000
0010
0100
0000
,
0001
1000
0001
0001
,
0001
1000
0001
0000
;

//---------------dance-single - K. Ward----------------
#NOTES:
     dance-single:
     K. Ward:
     Medium:
     6:
     0.367,0.420,0.140,0.082,0.000,285.000,17.000,10.000,0.000,0.000:

0000
0000
0000
0000
,
0000
0000
0000
0000
,
0000
0000
0000
0000
,
0000
0000
0000
0000
,
1000
0001
0100
0001
,
1000
0010
0100
0100
,
0001
1000
1000
0010
,
1000
0000
0000
0000
,
0001
0100
0100
0000
0001
0100
0100
0000
,
0001
0000
0100
0000
0010
0100
0010
0000
,
1000
0010
0010
0000
1000
0010
0010
0000
,
1000
0000
0010
0000
0100
0010
0100
0000
,
0001
0100
0100
0000
0001
0100
0100
0000
,
0001
0000
0100
0000
0010
0100
0010
0000
,
1000
0010
0010
0000
1000
0010
0010
0000
,
1000
0010
2000
0000
,
3001
0000
0100
0000
0001
1000
0100
0000
,
1000
0010
0100
0010
,
0010
0000
1000
0000
0010
0100
0001
0000
,
2000
0000
0002
3003
,
1000
0000
0010
0000
0100
0010
1000
0000
,
0010
0000
0100
0100
,
0001
0000
1000
0000
0010
1000
0010
0000
,
0100
0001
0100
0001
,
1001
0110
1001
0000
,
0000
0000
1000
1000
,
1000
0001
0100
0000
0001
0000
0001
0000
,
0001
0100
0001
0000
1000
0000
1000
0000
,
1000
0010
1000
0000
0010
0000
0010
0000
,
0020
0000
0130
0100
,
0100
0001
0100
0000
0001
0000
0001
0000
,
0001
0100
0001
0000
1000
0000
1000
0000
,
1000
0010
1000
0000
0010
0000
0010
0000
,
0000
0010
2000
0001
,
0000
0100
0000
0001
,
3000
0100
0020
1000
,
0000
0100
0000
1000
,
0000
0130
2000
0001
,
0000
0010
0000
0001
,
3000
0000
0010
0000
2000
0000
0000
0020
,
0000
0000
0000
3030
,
0110
0110
1000
0000
,
1000
0000
0010
0000
,
0000
0000
0100
0100
,
0010
1000
0001
0000
,
0000
0000
1000
0010
,
1000
0010
0100
0001
,
0100
0000
0001
0100
0010
0000
1000
0000
,
0010
1000
0001
0001
,
0100
0000
0000
0110
,
0000
0011
0000
1100
,
0110
0000
0000
1100
,
0000
0011
0000
1000
,
0001
0000
1000
0010
,
0100
0010
1000
0000
,
1000
0001
1000
0010
,
0100
0010
1000
0000
,
0000
0001
1000
0010
,
0100
0001
0100
0010
,
1000
0000
0010
0100
0001
0000
0000
0000
,
1100
0000
1001
0000
,
0000
0000
0000
0000
1000
0010
0010
0000
,
1000
0010
0010
0000
1000
0000
0010
0000
,
0100
0010
0100
0000
0001
0100
0100
0000
,
0001
0100
0100
0000
0001
0000
0100
0000
,
0010
0100
0010
0000
1000
0010
0010
0000
,
1000
0010
0010
0000
1000
0000
0010
0000
,
0100
0010
0100
0000
0001
0100
0100
0000
,
0001
0100
0100
0000
0001
0000
0100
0000
,
0000
0010
1000
0010
,
1000
0001
0010
0000
0001
0000
0100
0000
,
0010
0100
0100
0001
,
0100
0010
1000
0000
0002
0000
1000
0000
,
1000
1003
0001
0100
,
0010
0100
0001
0000
0100
0000
0100
0000
,
0010
0010
1000
0001
,
0100
0001
0100
0000
0010
0000
1000
0000
,
0010
1000
1100
0011
,
1001
0000
1001
0000
;

//---------------dance-single - K. Ward----------------
#NOTES:
     dance-single:
     K. Ward:
     Hard:
     9:
     0.609,0.584,0.181,0.165,0.173,475.000,22.000,20.000,19.000,0.000:

0000
0000
0000
0000
,
0000
0000
0000
0000
,
0000
0000
0000
0000
,
0000
0000
0000
0000
,
1000
0000
0001
0000
0100
0010
1000
0000
,
0001
0000
0100
0000
0010
0100
0001
1000
,
0001
0000
1000
0000
0001
0100
0010
0000
,
1000
0011
0000
0001
,
1000
0000
0001
0100
0010
0000
1000
0001
1000
0000
0010
0100
0010
0000
1000
0000
,
000M
1000
000M
1000
0100
100M
0100
0000
,
1000
0000
0010
0100
0001
0000
0100
0010
1000
0000
0010
0100
0001
0000
1000
0000
,
000M
0100
000M
1000
1100
0000
1100
0000
,
0010
0000
0100
0010
1000
0000
0010
0100
0001
0000
0100
0010
1000
0000
0100
0000
,
0000
M010
0000
M001
1000
0000
0001
0000
,
0100
0000
0010
0100
0001
0000
0100
0010
0100
0000
0001
0100
0001
0000
2000
0000
,
0000
0010
0000
3010
1000
0000
0001
0000
,
1000
0001
0100
0010
1000
0001
0010
0100
,
1000
0001
1000
0010
0100
0010
0010
0000
,
0100
0001
1000
0001
0010
0100
1000
0001
,
0200
0000
0310
0000
2000
0001
3001
0000
,
0001
0010
0100
1000
0010
0100
0001
0010
,
0100
1000
0010
0100
0000
0100
0010
0000
,
1000
0001
0100
0001
0010
0001
1000
0010
,
0100
0000
0010
0000
1000
0001
1000
0001
,
1100
0000
0000
0000
0011
0000
0000
0000
1001
0000
0000
0000
1000
0001
1000
0001
,
1000
0000
M00M
0000
1000
0010
0100
0000
,
0001
0100
0010
0000
1000
0010
0100
0001
,
0100
0010
1000
0000
0001
0100
0010
0000
,
1000
0010
0100
0000
0001
1000
0010
0100
,
0001
0100
0001
0001
1000
0010
0100
0000
,
0001
0100
0010
0000
1000
0010
0100
0001
,
0100
0010
1000
0000
0001
0100
0010
0000
,
1000
0010
0100
0000
0001
1000
0010
0100
,
0001
0000
0100
0000
0002
0000
0000
0000
1003
0010
1000
0000
0001
0000
0000
0000
,
1000
0010
1000
0000
0001
0000
0000
0000
1000
0000
0010
0000
0100
0000
0001
0000
,
0100
0000
0010
0000
1000
0000
0000
0000
0001
0100
0001
0000
1000
0000
0000
0000
,
0001
0100
0001
0000
1000
0000
0000
0000
0001
0000
0100
0000
0010
0000
1000
0000
,
0010
0000
0100
0000
0001
0000
0001
0000
1000
0100
1000
0000
0010
0000
0000
0000
,
1000
0100
1000
0000
0010
0000
0000
0000
0100
0000
0010
0000
1000
0000
0001
0000
,
0100
0010
0100
0000
0002
0000
0000
0203
,
000M
0000
0300
0M00
0001
1000
0010
0100
,
0110
0110
2000
0000
,
3200
0000
0320
0001
,
0031
0000
0020
0000
,
0230
0000
2300
0010
,
3100
0000
0000
0000
0000
0001
0100
0001
,
0000
0010
0100
0010
0000
0100
1000
0100
,
2000
0000
3100
0000
0000
1000
0010
1000
,
0000
0100
0010
0100
0000
0010
0001
0010
,
0002
0013
1000
0011
,
0001
1100
1000
0110
,
0110
0000
0000
0000
1000
0001
0011
0000
,
0001
1000
1100
0000
1000
0010
0000
0110
,
1001
0000
0000
0000
0000
0000
0000
0000
1000
0000
0000
0001
0000
0000
0100
0000
,
0010
0000
0000
1000
0000
0000
0001
0000
0100
0000
0000
0010
0000
0000
1000
0000
,
0001
0000
0100
0000
0010
0000
1000
0000
0001
0000
0000
0100
0000
0000
0010
0000
,
1000
0000
0000
0010
0000
0000
0100
0000
0001
0000
0000
1000
0000
0000
0010
0000
,
1000
0100
1000
0001
1000
0000
0001
0000
,
0100
0010
1000
0000
0001
0000
0100
0000
,
0010
0100
0001
1000
1000
0000
0000
0000
,
0011
0000
1001
0000
,
1000
0001
1000
0001
1000
0000
0001
0000
2000
0000
3001
0100
0010
0000
1000
0001
,
1000
0000
0010
0100
0010
0000
1000
0000
000M
0000
1000
0000
000M
0000
1000
0000
,
0100
0000
1000
0000
0100
0000
0000
0000
1000
0000
0010
0100
0001
0000
0100
0010
,
1000
0000
0010
0100
0001
0000
1000
0000
000M
0000
0100
0000
000M
0000
1000
0000
,
0020
0000
0000
0000
1030
0000
0000
0000
0010
0000
0100
0010
1000
0000
0010
0100
,
0001
0000
0100
0010
1000
0000
0100
0000
M000
0000
0010
0000
M000
0000
0001
0000
,
1000
0000
0000
0000
1100
0000
0000
0000
0010
0000
0100
0010
1000
0000
0010
0100
,
0010
0000
1000
0010
1000
0000
0002
0000
0000
0000
0100
0000
0000
0000
0103
0000
,
0001
0000
1000
0000
0001
1000
0010
0100
,
0001
1000
0100
0010
0001
1000
0001
0100
,
0010
0100
0100
0100
0010
1000
0001
1000
,
0100
0010
0001
1000
0020
0000
0130
0000
,
0002
1000
1003
1000
0001
0010
0100
1000
,
0010
0100
0001
0010
0100
1000
0010
0100
,
0010
0100
0100
0100
0001
1000
0010
1000
,
0100
1000
0001
0100
0020
0000
1030
0000
,
0001
0100
0010
1000
1100
0000
0011
0000
,
1001
0000
0000
0000
1000
0001
1000
0001
1000
0000
0000
0000
M00M
0000
0000
0000
;

//---------------dance-single - C. Foy----------------
#NOTES:
     dance-single:
     C. Foy:
     Challenge:
     11:
     0.839,1.000,0.140,0.255,0.919,665.000,17.000,31.000,90.000,0.000:








0000
0000
0000
0000
,
0000
0000
0000
0000
,
0000
0000
0000
0000
,
0000
0000
0000
0000
,
1MM0
0000
0001
1000
0001
0000
1000
0000
0001
0000
0100
0001
0100
0010
0100
0000
,
0001
0000
1000
0100
0010
0001
1000
0100
0010
0001
0010
0001
1000
0001
0100
0000
,
0001
0000
0010
0100
1000
0000
0010
0000
0100
0000
0010
1000
0001
0010
0100
0000
,
M010
0000
0001
1000
001M
0100
0010
1000
0001
0100
0010
1000
001M
0100
0001
0000
,
10M0
0000
0001
0100
0010
0000
1000
0001
0100
0000
0010
1000
0001
0000
0100
0000
,
0000
0001
0010
0100
0000
1000
0010
0000
,
1000
0000
0010
0100
0001
0000
1000
0100
0010
0000
0001
0010
0001
0000
0100
0000
,
0000
0000
0010
0000
0000
0000
1000
0000
0001
0000
1000
0010
0100
0001
1000
0010
,
0100
0000
0010
0100
0001
0000
1000
0100
0010
0000
0001
1000
0010
0000
0100
0000
,
0000
0001
0000
0100
0001
0000
1000
0000
,
0001
0000
0010
0100
0010
0000
0001
0010
0100
0000
1000
0001
0100
0000
0010
0000
,
0000
0000
0100
0000
0000
0010
100M
0000
0100
0000
M000
0010
0001
0000
1000
0000
,
001M
0000
0100
0001
0100
0000
0010
0100
0001
0000
1000
0001
0010
0000
0100
0000
,
0000
0010
0010
0001
0000
1000
0010
0000
,
0100
0000
0010
0100
0001
0000
1000
0001
0100
0000
0010
1000
0100
0000
1000
0000
,
0000
0000
0010
0000
0000
0000
0100
0000
0001
0000
0100
0010
1000
0001
0100
0010
,
0100
0000
0001
1000
0100
0000
1000
0100
0010
0000
0100
0010
0001
0000
0100
0000
,
0000
0000
0010
0000
1000
0000
0100
0000
0010
0000
0000
0001
0100
0000
0010
0000
,
0100
0000
0010
1000
0001
0000
1000
0100
0010
0000
0001
0100
0010
0000
1000
0000
,
0000
0000
0100
0000
0000
0010
0000
0000
0001
0000
0000
0100
0001
0000
1000
0000
,
21MM
3M00
0000
0000
0000
0000
0000
0000
MM12
00M3
0000
0000
0000
0000
0000
0000
1MM1
0000
0000
0000
0000
0000
0000
0000
1000
0000
0001
0000
1000
0000
0001
0000
,
1000
0000
0000
0000
MM1M
0000
0000
0000
2MMM
0000
3000
0010
1000
0000
1000
0000
,
0010
1000
0001
0100
0010
0000
0200
0000
0300
0000
0000
0010
1000
0000
0100
0000
,
0010
0001
1000
0010
0100
0001
2000
0000
3100
0010
0001
0000
0200
0010
0300
0000
,
0010
0000
0000
1000
0010
1000
0001
0000
0000
0000
0010
0000
0010
0000
0001
0000
,
1000
0010
0100
0001
1000
0001
0010
0100
2000
3000
0000
0000
0020
0000
0030
0000
,
0010
0000
0000
1000
0100
0000
0100
0000
0000
0000
0010
0000
0000
0000
0000
0000
,
0002
0000
0003
0000
0100
0000
0010
1000
0002
0000
0003
0000
0000
0000
0000
0000
,
0020
0030
0000
0020
0030
0000
0002
0003
,
1000
0100
0010
0001
0010
0100
1000
0000
01M1
0000
1000
0010
1000
0001
1000
0010
,
0100
0010
1000
0001
1000
0100
1000
0001
0100
0001
0100
0010
0100
0001
0100
0001
,
1000
0001
1000
0000
0110
0000
0000
0000
1010
0000
1000
0010
0100
0001
1000
0001
,
0010
0100
1000
0100
1000
0001
0100
0001
1000
0001
1000
0010
1000
0010
0100
0001
,
1000
0001
0010
0001
0010
0100
1000
0000
1100
0000
1000
0010
1000
0001
0100
0010
,
1000
0001
1000
0001
0010
0001
1000
0100
0010
0100
0010
0001
1000
0001
0010
0001
,
0010
0001
1000
0000
1010
0000
0000
0000
0110
0000
1000
0001
0100
0000
0110
0000
,
1000
0010
0100
0001
1000
0001
1000
0100
1000
0010
0100
0010
1000
0010
1000
0000
,
1010
0000
0011
0000
M11M
0100
0010
1000
,
0002
0000
0000
0000
0103
0000
0100
0000
0200
0000
0000
0000
0300
0000
0010
0100
,
0002
0000
0000
0000
0013
0000
0000
0000
0001
0100
0001
1000
0100
1000
0001
0000
,
0020
0000
0000
0230
0000
0000
2300
3000
0010
1000
0001
0100
0010
0100
0001
1000
,
0200
0300
0000
0000
2000
3000
0010
1000
,
0002
0000
0003
0000
0100
0000
0010
0000
2000
0000
3000
0000
0000
0000
0100
0010
,
0001
0000
0000
0000
0100
0000
0000
0000
0010
1000
0001
1000
0100
1000
0001
0000
,
0020
0000
0030
0001
0000
0000
0100
0000
0020
0000
0000
0000
0030
0000
0000
0000
,
0100
0000
0000
0000
0100
0000
0000
0000
1001
0000
0010
1000
0M01
0000
0001
0000
,
0120
0000
1030
0000
0M1M
0000
0010
0000
1002
0000
0000
0000
MMM3
0000
0100
0010
,
200M
0000
0000
0000
3002
0000
0000
0000
0203
0000
0310
0100
M001
0000
0001
0000
,
0100
0000
0000
0010
MM0M
0000
0010
0000
0010
1000
0001
0100
00M1
1000
0001
0010
,
M200
000M
0000
0000
0300
0000
0000
0000
0000
0000
0000
0000
0000
0000
0000
0000
M1MM
0000
0000
0000
0000
0000
0010
0000
1000
0000
0000
0000
0000
0000
1000
0000
,
0100
0000
0000
0100
0001
0000
0000
0001
0100
0000
0000
0100
1000
0000
0000
1000
,
0010
0000
0000
0010
1000
0000
0010
1000
0001
0100
0000
0010
0000
0000
0000
1000
,
0100
0000
0000
0100
0001
0000
0000
0001
0100
0000
0000
0100
1000
0000
0000
1000
,
0010
0000
0000
0010
0100
0000
0001
0100
001M
1000
0000
0001
0100
0000
0000
0100
,
1000
0000
0000
1000
0100
0000
0000
0100
0001
0000
0000
0001
0010
0000
0000
0100
,
1000
0000
0000
1000
0001
0000
0100
0010
100M
0010
0000
1000
0001
0000
0000
0001
,
M010
0000
0100
1000
0001
1000
0000
0010
M10M
0000
0000
0000
MMMM
0000
0000
0000
,
100M
0010
1000
0001
10M0
0100
1000
0001
M100
0000
0001
0100
0010
0000
1000
0001
,
0010
0000
0100
0010
0100
0000
1000
0000
0000
0000
0001
0000
0100
0000
0010
0000
,
0000
0000
1000
0000
0100
0000
0000
0000
1000
0000
0010
0100
0001
0000
0100
0010
,
1000
0000
0010
0100
0001
0000
1000
0000
0000
0000
0100
0000
0000
0000
1000
0000
,
1000
0000
0001
1000
0010
1000
0010
0100
0001
0000
0010
0001
1000
0000
0010
0100
,
0001
0000
0100
0010
1000
0000
0100
0000
0000
0000
0010
0000
0000
0000
0001
0000
,
1000
0000
0000
0000
0001
0000
0000
0000
0100
0000
0010
0100
0001
0000
0100
0010
,
0100
0000
0001
0100
0001
0000
1000
0000
0000
0000
0100
0000
0000
0100
100M
0000
,
1000
0000
000M
0010
0100
0000
0001
0000
10M0
0000
0001
0100
0010
0000
1000
0001
,
1000
0000
0010
1000
0010
0000
0100
0000
0000
0000
0001
0000
0001
0000
0001
0000
,
0000
0000
1000
0000
0100
0000
0000
0000
1000
0000
0010
0100
0001
0000
0100
0010
,
1000
0000
0010
0100
0001
0000
0010
0000
0000
0000
0010
0000
0000
0000
0010
0000
,
0001
0000
0100
0010
1000
0001
1000
0100
0010
0000
0100
0010
0001
0000
0100
0010
,
1000
0000
0100
0010
0100
0000
0010
0000
0000
0000
0010
0000
0000
0000
0010
0000
,
0001
0000
0000
0000
1000
0000
0000
0000
0010
0000
0100
0010
1000
0000
0010
0100
,
0010
0000
1000
0001
0010
0000
0100
0000
0000
0000
0100
0000
0000
1000
0001
0000
,
1000
0000
0000
0001
1000
0000
0001
0000
MMMM
0MM0
0MM0
MMMM
0000
0000
MMMM
0MM0
,
0MM0
0000
0000
0000
0MM0
0000
0000
0000
0000
0000
0000
0000
0000
0000
0000
0000
0000
0MM0
0000
0000
M000
0000
0000
0000
M000
0000
0000
0000
M0MM
0000
0000
0000
MMM0
0000
0000
0000
0000
0000
0000
0000
0000
0000
0000
0000
0000
0000
0000
0000
1001
0000
0000
0000
0000
0000
0000
0000
0000
0000
0000
0000
0000
0000
0000
0000
;

//---------------dance-double - M. Emirzian----------------
#NOTES:
     dance-double:
     M. Emirzian:
     Easy:
     4:
     0.253,0.324,0.058,0.049,0.000,202.000,7.000,6.000,0.000,0.000:















00000000
00000000
00000000
00000000
,
00000000
00000000
00000000
00000000
,
00000000
00000000
00000000
00000000
,
00000000
00000000
00000000
00000000
,
10010000
00000000
01100000
00000000
,
00101000
00000000
00010000
00000100
,
00001001
00000000
00000110
00000000
,
00001010
00000000
00000000
00000100
,
00000100
00000010
00001000
00000000
,
00000100
00000010
00000001
00000000
,
00000010
00000100
00001000
00000000
,
00000010
00010000
00001000
00000000
,
00010000
00001000
01000000
00000000
,
00100000
10000000
00010000
00000000
,
00100000
01000000
10000000
00000000
,
01000000
00100000
00010000
00100000
,
01000000
10000000
00010000
10000000
,
00010000
00100000
00001000
00000000
,
00010000
00001000
00010000
00001000
,
00000010
00000001
00000010
00000000
,
00000100
00000010
00000100
00001000
,
00000100
00010000
00001000
00000000
,
00001000
01000000
00001000
01000000
,
00010000
10000000
00100000
01000000
,
00020000
20030000
30020000
00000000
,
00000000
00030000
00010000
00000000
,
01000000
00000000
00100000
10000000
,
01000000
00000000
00010000
00000000
,
00001000
00000000
00000010
00000001
,
00001000
00000000
00000010
00000000
,
00000100
00000000
00000001
00000100
,
00001000
00000000
00010000
00000000
,
00001000
00000000
01000000
00100000
,
10000000
00000000
00010000
00000000
,
00100000
00000000
01000000
10000000
,
00010000
00000000
00100000
00000000
,
00001000
00000000
00010000
00001000
,
00010000
00000010
00001000
00000000
,
00000100
00000000
00000010
00000001
,
00000010
00000100
00001000
00000000
,
00000001
00000000
00000100
00001000
,
00010000
00001000
00000100
00000000
,
00000000
00000000
00000001
00000000
,
00000000
00000000
00001000
00000000
,
00000000
00000000
00010000
00000000
,
00000000
00000000
10000000
00000000
,
00010000
00000000
01000000
01000000
,
01000000
00000000
00100000
00000000
,
10000000
00000000
00010000
00010000
,
00010000
00000000
00100000
00001000
,
00010000
00000000
00000100
00000100
,
00000100
00000000
00000010
00000001
,
00000010
00000000
00000100
00000100
,
00001100
00000000
00010000
00000000
,
00000000
00000000
00001000
00000000
,
00000000
00000000
01000000
00000000
,
00000000
00000000
00100000
00000000
,
00000000
00000000
10000000
01000000
,
00100000
00000000
00001000
00001000
,
00001000
00000000
00010000
00000010
,
00001000
00000000
00000100
00000100
,
00000100
00000000
00000010
00000001
,
00000010
00000000
00000100
00001000
,
00000100
00000000
00000010
00000001
,
00000100
00000000
00000010
00010000
,
00001000
00000000
00001000
01000000
,
00100000
00000000
01000000
00010000
,
00100000
00000000
01000000
10000000
,
01000000
00000000
00100000
00010000
,
00100000
00000000
00001000
00000000
,
00010000
00000000
00000100
00001000
,
00000010
00000100
00000001
00000000
,
00001000
00000000
00000100
00000010
,
00000001
00000010
00000100
00000000
,
00010000
00000000
00001000
01000000
,
00010000
01000000
00100000
00000000
,
10000000
00000000
00100000
01000000
,
00010000
01000000
00002000
00023000
,
00032000
00000000
00000000
00003000
;

//---------------dance-double - M. Emirzian----------------
#NOTES:
     dance-double:
     M. Emirzian:
     Medium:
     5:
     0.370,0.422,0.107,0.297,0.000,265.000,13.000,36.000,0.000,0.000:















00000000
00000000
00000000
00000000
,
00000000
00000000
00000000
00000000
,
00000000
00000000
00000000
00000000
,
00000000
00000000
00000000
00000000
,
01000000
00100000
10000000
00100000
,
01000000
00001000
00010000
00000010
,
00001000
00000010
00000100
00000001
,
00000010
00000200
00000000
00000000
,
00001300
00000000
00000010
00001000
00000010
00000000
00000100
00000000
,
00001000
00010000
00002000
00000000
,
00013000
00000000
01000000
00100000
01000000
00000000
10000000
00000000
,
00010000
01000000
00200000
00000000
,
10300000
00000000
01000000
00100000
01000000
00000000
10000000
00000000
,
00010000
01000000
00002000
00000000
,
00013000
00000000
00000100
00001000
00000100
00000000
00000010
00000000
,
00000001
00000100
00000020
00000000
,
00010030
00000000
00001000
00000000
01000000
00010000
01000000
00000000
,
00100000
10000000
00100000
00000000
02000000
00000000
00000000
00000000
,
03010000
00000000
00100000
00000000
01000000
10000000
01000000
00000000
,
00100000
00010000
00100000
00000000
00002000
00000000
00000000
00000000
,
00013000
00000000
00000100
00000000
00001000
00000010
00001000
00000000
,
00000001
00000100
00000001
00000000
00000020
00000000
00000000
00000000
,
00000130
00000000
00001000
00000000
00000001
00000010
00000001
00000000
,
00001000
00000100
00001000
00000000
00000020
00000000
00000000
00000000
,
00020030
00032000
02003000
00000000
,
00000000
03000000
00010000
10000000
,
01000000
00000000
00100000
00010000
02000000
00000000
00000000
00000000
,
03100000
10000000
00100000
00010000
,
00001000
00000000
00010000
00000100
00002000
00000000
00000000
00000000
,
00003010
00000100
00000001
00000010
,
00000100
00000000
00001000
00000001
00000200
00000000
00000000
00000000
,
00001300
00010000
00001000
00000100
,
00001000
00000000
00010000
00001000
02000000
00000000
00000000
00000000
,
03200000
00000000
10300000
00010000
,
10000000
00000000
00010000
00000000
00100000
00001000
00010000
00000000
,
00020020
00030030
00000010
00001000
,
00000010
00000000
00000100
00000000
00000001
00000010
00000100
00000000
,
00002002
00003003
00000100
00000010
,
00001000
00000000
00000100
00000000
00010000
00001000
01000000
00000000
,
02020000
03030000
00100000
10000000
,
00100000
00000000
01000000
00000000
00010000
00100000
01000000
00000000
,
22000000
33000000
10010000
00000000
,
00000000
00000000
00010000
00000000
,
00000000
00000000
00001000
00000000
,
00000000
00000000
00000010
00000000
,
00000000
00000000
00000100
00000010
,
00000001
00000000
00000010
00000000
,
00000100
00000000
00010000
00001000
,
01000000
00000000
00100000
00000000
,
10000000
00000000
01010000
01000000
,
00010000
00000000
00101000
00100000
,
00001000
00000000
00010010
00010000
,
00000010
00000000
00001000
00000000
00000100
00000010
00000000
00000001
,
00001001
00000000
00000100
00000000
,
00000000
00000000
00001000
00000000
,
00000000
00000000
00010000
00000000
,
00000000
00000000
01000000
00000000
,
00000000
00000000
10000000
00100000
,
01000000
00010000
00100000
01000000
,
10000000
00000000
00100000
01000000
00001000
00000000
00000000
00000000
,
00011000
00000000
00010010
00000000
,
00000110
00000000
00001001
00000000
00000010
00000000
00000100
00001000
,
00000100
00000010
00000001
00000010
,
00000200
00000000
00000000
00000000
00010300
00000000
00001000
00010000
,
00001000
01000000
00100000
10000000
,
02000000
00000000
00000000
00000000
03100000
00000000
00010000
01000000
,
00010000
10000000
01000000
00010000
,
00002000
00000000
00000000
00000000
00013000
00000000
00000010
00001000
,
00000010
00000100
00000001
00000010
,
00000200
00000000
00001300
00000010
,
00000100
00000001
00000100
00000000
00000010
00001000
00000010
00000000
,
00020000
00000000
00031000
01000000
,
00010000
01000000
00010000
00000000
10000000
00100000
10000000
00000000
,
02000000
00000000
03100000
00001000
,
00010000
00001000
00010000
00000000
00000100
00001000
00000100
00000000
,
00000020
00000000
00000031
00000100
,
00000010
00001000
00000010
00000000
00000100
00000001
00000100
00000000
,
00000020
00000000
00020030
00032000
,
02003000
00000000
00000000
03000000
;

//---------------dance-double - M. Emirzian----------------
#NOTES:
     dance-double:
     M. Emirzian:
     Hard:
     9:
     0.572,0.552,0.354,0.165,0.062,423.000,43.000,20.000,8.000,0.000:















00000000
00000000
00000000
00000000
,
00000000
00000000
00000000
00000000
,
00000000
00000000
00000000
00000000
,
00000000
00000000
00000000
00000000
,
00001000
00000100
00000010
00001000
,
00000010
00000000
00000100
00000000
00000001
00000000
00001000
00000100
,
00010100
00001000
01000000
00010000
,
01001000
00000000
00000000
00000000
10010000
00000000
00000000
00000000
M00M0000
00000000
01000000
10000000
01000000
00000000
01000000
10000000
,
01000000
00100000
00010000
00000000
01000000
00100000
10000000
00100000
,
01000000
00010000
00100000
00001000
00000000
00010000
00000010
00001000
,
00000010
00000100
00000001
00000000
00000010
00000100
00001000
00000100
,
00000010
00000001
00000000
00000100
00000010
00010000
00000010
00001000
,
00000100
00010000
01000000
00000000
10000000
00100000
10000000
00010000
,
01000000
00100000
10000000
01000000
00100000
00000000
00010000
00100000
,
01000000
00010000
00001000
00000000
00010000
00000100
00001000
00000010
,
00010000
00000010
00001000
00000100
00000010
00000001
00000010
00000000
,
00000100
00001000
00001001
00000000
00000010
00010000
00001000
01000000
,
00100000
10000000
01100000
00000000
00010000
01000000
01001000
00000000
,
00100000
00010000
10010000
00000000
00100000
01000000
00010000
01000000
,
00001000
00010000
00011000
00000000
00010000
00000100
00001100
00000000
,
00001000
00000010
00000110
00000000
00000001
00000100
00000010
00001000
,
00000010
00000100
00000101
00000000
00000010
00001000
00010010
00000000
,
00001000
00010000
01001000
00000000
00010000
01000000
00100000
10000000
,
00100000
01000000
10010000
00000000
10000000
01000000
00200000
00000000
,
00302000
00003020
00000032
00000000
,
00000000
00000000
00000003
00000000
00000100
00000010
00001000
00000000
,
00001100
00000000
00010000
00020000
00000000
00031000
01000000
00010000
,
00100000
01000000
10000000
00000000
01000000
00100000
00010000
00000000
,
01010000
00000000
00001000
00002000
00000000
00013000
00000010
00000100
,
00000001
00000100
00000010
00000000
00001000
00000100
00000010
00000000
,
00001001
00000000
00000100
00000200
00000000
00001300
00010000
00100000
,
10000000
00100000
01000000
00000000
00010000
01000000
00100000
00000000
,
10100000
00000000
01000000
02000000
00000000
03100000
00010000
00100000
,
01000000
00000000
10000000
00000000
00010000
00000000
00000000
00000000
00011000
00000000
00000000
00000000
00010000
00000010
00000000
00000000
,
00000010
00000100
00000000
00000000
00000100
00000001
00000000
00000000
00000010
00000000
00000010
00000000
00000010
00000000
00000000
00000000
,
00000100
00000000
00001000
00000000
00000010
00000000
00001000
00000000
00001001
00000000
00000000
00000000
00000010
00010000
00000000
00000000
,
00010000
00001000
00000000
00000000
00001000
01000000
00000000
00000000
00010000
00000000
00010000
00000000
00010000
00000000
00000000
00000000
,
01000000
00000000
00100000
00000000
10000000
00000000
00100000
00000000
10010000
00000000
00000000
00000000
00100000
00001000
00000000
00000000
,
00001000
00010000
00000000
00000000
00010000
00000100
00000000
00000000
00001000
00000000
00001000
00000000
00001000
00000000
00000000
00000000
,
00000010
00000000
00001000
00000000
00000100
00000000
00000010
00000000
00000011
00000000
00000000
00000000
00000100
00000010
00000000
00000000
,
00000010
00010000
00000000
00000000
00010000
00001000
00000000
00000000
01000000
00000000
01000000
00000000
01000000
00000000
00000000
00000000
,
00010000
01000000
00100000
10000000
01100000
00000000
00000000
00000000
,
00020000
00000000
00000000
00000000
00230000
000M0000
00000000
00000000
,
00300000
00000000
00002000
00000000
,
00003200
0000M000
00000000
00000000
00000302
00000M00
00000000
00000000
,
00000003
000000M0
00000010
00000100
,
00001000
00000100
00000010
00000001
,
00000100
00000000
00000010
00010000
00001010
00000000
00000100
00000000
,
00010000
00000000
00000000
00001000
00000000
00000000
01000000
00000000
00010000
00000000
00000000
00000000
00010000
00000000
00100000
00000000
,
01000000
10000000
01000000
00000000
00110000
00000000
01000000
00100000
,
10000000
00000000
10000000
00100000
01000000
00000000
00010000
01000000
,
00001000
00010000
00000010
00000000
00001100
00000000
00000010
00000001
,
00000010
00000000
00000100
00001000
00000100
00000110
00000000
00001001
,
00000200
00000000
00010300
00010000
,
00001000
00001000
02000000
00000000
,
03100000
0M000000
10000000
10000000
,
01000000
01000000
00200000
00000000
,
00310000
00M00000
00100000
01000000
,
10000000
01000000
00100000
00001000
,
00010000
00000000
00000100
00001000
00010100
00000000
00000000
00000000
,
00001001
00000000
00011000
10010000
,
10000000
00100000
10000000
01000000
10000000
00100000
01000000
00000000
,
00010000
00100000
01000000
10000000
01000000
00100000
00001000
00010000
,
00000000
00000010
00001000
00000010
00000100
00000001
00000010
00000000
,
00000100
00001000
00000100
00000010
00000001
00000100
00000000
00000010
,
00010000
00001000
00000100
00001000
00010000
00100000
01000000
00000000
,
00010000
01000000
00100000
10000000
00100000
01000000
00010000
00100000
,
01000000
00000000
10000000
00100000
01000000
00001000
00010000
00000000
,
00000010
00001000
00000010
00000100
00000001
00000010
00000000
00000100
,
00001000
00000100
00000010
00000001
00000100
00000010
00001010
00000000
,
00010000
00001000
00100000
01000000
10000000
00100000
01100000
00000000
,
00010000
01000000
01001000
00000000
00010000
00001000
00010010
00000000
,
00001000
00000100
00000010
00000001
00000010
00000100
00001001
00000000
,
00000010
00001000
00010010
00000000
00001000
01000000
01010000
00000000
,
00100000
01000000
00010000
00100000
01000000
10000000
10010000
00000000
,
00100000
01000000
01001000
00000000
00010000
00001000
00010100
00000000
,
00001000
00000100
00000010
00000001
00000100
00000010
00001001
00000000
,
00000010
00000100
00020000
00000000
00230000
00000000
20300000
00000000
,
32000000
00000000
00000000
03000000
;

//---------------dance-double - M. Emirzian----------------
#NOTES:
     dance-double:
     M. Emirzian:
     Challenge:
     9:
     0.685,0.682,0.865,0.173,0.144,456.000,105.000,21.000,34.000,3.000:















00000000
00000000
00000000
00000000
,
00000000
00000000
00000000
00000000
,
00000000
00000000
00000000
00000000
,
00000000
00000000
00000000
00000000
,
00010000
00000000
00001000
00000000
01000000
00100000
10000000
00100000
,
01000000
00000000
00010000
00000000
00100000
00000000
01100000
00110000
,
10010000
00000000
10000000
01000000
00100000
00000000
00001000
00010000
,
00011000
00000000
00000000
00000000
00001001
00000000
00000000
00000000
0000M00M
00000000
00000010
00000001
00000010
00000000
00000010
00000001
,
00000010
00000000
00000100
00001000
00000100
00000000
00000010
00000001
00000010
00000000
00000001
00000000
00000100
00000000
00001000
00000000
,
00100000
00010000
01000000
10010000
00000000
11000000
00110000
00000000
,
01000000
00000000
00100000
10000000
00100000
00000000
01000000
00010000
01000000
00000000
00010000
00000000
00100000
00000000
00101000
00000000
,
00000000
00010010
00000000
00001100
00000010
00000100
00000001
00000100
,
00000010
00000000
00001000
00000100
00001000
00000000
00000010
00000100
00000010
00000000
00010000
00000000
00100000
00000000
01100000
00000000
,
00000000
01001000
00000000
00110000
11000000
00000000
10010000
00100000
,
00010000
00000000
01000000
00100000
01000000
00000000
00010000
10000000
00010000
00000000
00100000
00000000
00001000
00000000
01001000
00000000
,
00000000
00000000
00110000
00000000
00000000
00010100
00000000
00000000
00001000
00000000
00000100
00000000
00000010
00000000
00000001
00000000
,
00000010
00000100
00010000
00000010
00000100
00000010
00001000
00000001
,
00000100
00000010
00001010
00000000
00010100
00000000
00011000
01001000
,
01010000
00100000
01000000
10000000
01000000
00100000
00001000
00010000
,
00100000
01000000
01001000
00000000
00110000
00000000
11000000
10010000
,
00110000
01000000
00100000
00010000
00100000
00001000
00000100
00000010
,
00001000
00000010
00000110
00000000
00001001
00000000
00000011
00001001
,
00000110
00000100
00001000
00000100
00000010
00000001
00000100
00001000
,
00100000
00010000
01100000
00000000
10010000
00000000
01100000
11000000
,
10010000
M00M0000
00011000
000MM000
00001001
0000M00M
00000001
00000100
,
00000020
00000000
00000030
000000M0
00001000
00000100
00000010
00000001
,
00000010
00000000
00000100
00001100
00000000
00000010
00000100
00000001
,
00000010
00000100
00001000
00000100
00010000
00100000
00010000
00001000
,
01000000
00100000
10000000
10010000
00000000
01000000
00100000
00010000
,
00100000
01000000
10000000
00100000
01000000
00001000
00100000
00010000
,
00100000
01000000
10000000
01100000
00000000
01000000
00100000
00010000
,
00100000
00001000
00000010
00001000
00010000
00000000
00000010
00000100
,
00001001
00000000
00000010
00000100
00001001
00000000
00000100
00000010
,
00001000
00000000
00000010
00000000
00000100
00000000
00000001
00000000
00000010
00000000
00000000
00000000
00000100
00001000
00000000
00000000
,
00000010
00010000
00000000
00000000
00001000
01000000
00000000
00000000
00010000
00000000
00100000
00000000
01000000
00000000
10000000
00000000
,
01000000
00000000
00100000
00000000
10010000
00000000
00000000
00000000
01010000
00000000
00000000
00000000
00100000
01000000
00000000
00000000
,
00001000
00010000
00000000
00000000
00000010
00000100
00000000
00000000
00000001
00000000
00000010
00000000
00000100
00000000
00001000
00000000
,
00000100
00000000
00000010
00000000
00001001
00000000
00000000
00000000
00000011
00000000
00000000
00000000
00000100
00000010
00000000
00000000
,
00010000
00001000
00000000
00000000
00100000
01000000
00000000
00000000
10000000
00000000
00100000
00000000
01000000
00000000
00100000
00000000
,
10000000
00000000
00010000
00000000
01100000
00000000
00000000
00000000
11000000
00000000
00000000
00000000
00100000
01000000
00000000
00000000
,
00001000
00010000
00000000
00000000
00000010
00000100
00000000
00000000
00000001
00000000
00000100
00000000
00000010
00000000
00001000
00000000
,
00000010
00000100
00000001
00000101
00000200
00000000
00000000
00000000
,
00000302
00000M00
00000000
00000000
00000023
0000000M
00000000
00000000
,
00000130
00001000
00000020
00000000
,
00020030
000000M0
00000000
00000000
00031000
00000000
00100000
00000000
,
10010000
M00M0000
01000000
20000000
,
00200000
00000000
00000000
00000000
00000000
00000000
00000000
00000000
00010000
00000000
00000000
30300000
00000000
00000000
00000000
00000000
00010000
00000000
00000000
00000000
00000000
00000000
00000000
00000000
00001000
00000000
00000000
00000000
00000000
00000000
00000000
00000000
,
00000100
00000000
00000001
00001100
00001001
00000000
00000002
00000000
,
00000200
00000000
00000000
00000000
00000000
00000000
00000000
00000000
00001000
00000000
00000000
00000303
00000000
00000000
00000000
00000000
00001000
00000000
00000000
00000000
00000000
00000000
00000000
00000000
00010000
00000000
00000000
00000000
00000000
00000000
00000000
00000000
,
00100000
00000000
10000000
10100000
10010000
00000000
00100000
00000000
,
01010000
00001000
00011000
00000100
,
00001000
00000001
00001001
00011000
,
10010000
00000000
00100000
00000000
01010000
00100000
00000000
01000000
,
10100000
00000000
02000000
00000000
,
03002000
0M000000
00000000
00000000
00023000
0000M000
00000000
00000000
,
00030020
000M0000
00000000
00000000
00002030
000000M0
00000000
00000000
,
00003200
0000M000
00000000
00000000
00000320
00000M00
00000000
00000000
,
00000032
000000M0
00000000
00000000
00000203
00000000
00002000
00000000
,
00010000
00000000
00000000
00003300
00000000
00000000
00000000
00000000
00010000
00000000
00000000
00000000
00000000
00000000
00000000
00000000
01000000
00000000
00000000
00000000
00000000
00000000
00000000
00000000
10000000
00000000
00000000
00000000
00000000
00000000
00000000
00000000
,
00100000
00000000
00000000
00000000
01000000
00000000
01010000
00000000
10010000
00000000
00000000
M00M0000
00000000
00000000
00000000
00000000
,
00001010
00000000
00000000
0000M0M0
00000000
00000000
00000000
00000000
01010000
00000000
00000000
0M0M0000
00000000
00000000
00000000
00000000
,
00010000
00001000
00010000
00001000
00010000
00000000
00000100
00000000
00001000
00000000
00000100
00000010
00000100
00000000
00000010
00000001
,
00000010
00000100
00010000
00000100
00000010
00000001
00000100
00001001
,
00000000
00000000
00001100
00000000
00010100
00000000
00000000
00000000
00001000
00000000
01000000
00010000
01000000
00000000
00100000
01000000
,
00100000
10000000
01000000
10010000
00000000
01100000
00000000
00101000
,
00010000
01000000
00100000
00010000
00100000
00001000
00000100
00001000
,
00010000
00000010
00001000
00000110
00000000
00000011
00000000
00001100
,
00010100
00000000
00000000
00000000
00001010
00000000
00000100
00000000
00000010
00000000
00000001
00000100
00000001
00000000
00001000
00000010
,
00001000
00000000
00000100
00000000
00010000
00000000
00011000
00000000
00000000
00000000
00101000
00000000
00000000
01100000
00000000
00000000
,
01000000
10000000
01000000
00100000
00010000
01000000
00001000
00100000
,
00010000
10000000
01000000
00100000
00001000
00010000
00101000
00000000
,
00011000
00000000
00010010
00001010
00001001
00000010
00000100
00000001
,
00000100
00000010
00001000
00000100
00000010
00000100
00001001
00000000
,
00010100
00000000
00011000
00101000
01010000
00100000
01000000
10000000
,
01000000
00100000
00010000
01000000
00100000
10000000
01100000
00000000
,
10010000
00000000
00110000
00101000
00011000
00010000
00000010
00001000
,
00000100
00000010
00000100
00010000
00000010
00001000
00001001
00000000
,
00000110
00000000
00000011
00000110
00001001
0000M00M
00011000
000MM000
,
10010000
M00M0000
01000000
00010000
00002000
00000000
00003000
0000M000
;

//---------------lights-cabinet - ----------------
#NOTES:
     lights-cabinet:
     :
     Easy:
     1:
     1.000,1.000,1.000,0.025,0.070,503.000,352.000,3.000,0.000,215.000:



00000000
00000000
00000000
00000000
,
00000000
00000000
00000000
00000000
,
00000000
00000000
00000000
00000000
,
00000000
00000000
00000000
00000000
,
10000011
00000000
00010011
00000000
01000011
00100000
10000011
00000000
,
00010011
00000000
01000011
00000000
00100011
01000000
00010011
10000011
,
00010011
00000000
10000011
00000000
00010011
01000000
00100011
00000000
,
10010011
11110011
00000000
11110000
,
00000011
10010000
00000011
01100000
00000011
10010000
00000011
01100000
,
00000011
10010000
00000011
01100000
00000011
10010000
00000011
01100011
,
00000011
10010000
00000011
01100000
00000011
10010000
00000011
01100000
,
00000011
10010000
00000011
10010000
00000011
01100000
00000011
10010011
,
00000011
11000000
00000011
00110000
00000011
11000000
00000011
00110000
,
00000011
10100000
00000011
01010000
00000011
10100000
00000011
01010011
,
00000011
01100000
00000011
10010000
00000011
01100000
00000011
10010000
,
01100011
00000000
11110011
00000000
10000000
01000011
00100000
00010011
,
10000011
00010000
01000011
00100000
10000011
00010000
00100011
01000000
,
10000011
00010000
10000011
00100000
01000011
00100000
10000011
00000000
,
01000011
00010000
10000011
00010000
00100011
01000000
10000011
00010000
,
01000011
00000000
00100011
00000000
10000011
00010000
01000011
00000011
,
00010011
00100000
01000011
10000000
00100011
01000000
00010011
00100000
,
01000011
10000000
00100011
01000000
00000011
01000000
00100011
00000011
,
10000011
00010000
01000011
00010000
00100011
00010000
10000011
00100000
,
01000011
00000000
00100011
00000000
10000011
00010000
10000011
00010011
,
11000011
00000000
00110011
00000000
10010011
00000000
01100011
10010000
,
11110011
00000000
00001100
00000000
10000011
00100000
01000011
00000000
,
00010011
01000000
00100011
00000000
10000011
00100000
01000011
00010000
,
01000011
00100000
10000011
00000011
00010011
01000000
00100011
00000000
,
10000011
00100000
01000011
00000000
00010011
10000000
00100011
01000000
,
00010011
01000000
00010011
00010011
10000011
00100000
01000011
00000000
,
00010011
01000000
00100011
00000000
10000011
00100000
01000011
00010000
,
01000011
00100000
10000011
00000011
00010011
01000000
00100011
00000000
,
10000011
00100000
01000011
00000000
00010011
10000000
00100011
01000000
,
00010011
00000000
01000000
00000000
00010011
00000000
00000011
00000000
10000011
00100000
10000000
00000000
00010011
00000000
00000000
00000000
,
10000011
00100000
10000000
00000000
00010011
00000000
00000000
00000000
10000011
00000000
00100000
00000000
01000011
00000000
00010000
00000000
,
01000011
00000000
00100000
00000000
10000011
00000000
00000011
00000000
00010011
01000000
00010000
00000000
10000011
00000000
00000000
00000000
,
00010011
01000000
00010000
00000000
10000011
00000000
00000000
00000000
00010011
00000000
01000000
00000000
00100011
00000000
10000000
00000000
,
00100011
00000000
01000000
00000000
00010011
00000000
00010011
00000000
10000011
01000000
10000000
00000000
00100011
00000000
00000000
00000000
,
10000011
01000000
10000000
00000000
00100011
00000000
00000000
00000000
01000011
00000000
00100000
00000000
10000011
00000000
00010000
00000000
,
01000011
00100000
01000011
00000011
00010011
00000000
00000011
01000000
,
00000011
00000000
00000011
00000000
00010011
10000000
00100011
01000000
,
01100000
00000011
01100000
00000011
10000011
00000000
00110000
00000000
,
10000000
01100000
10000000
00110000
,
00110000
00000000
00010000
11000000
,
00100000
11000000
00010000
11000000
,
22000000
00000000
00000000
00000000
33010011
00100000
01000011
10000000
,
01000011
00100000
00010011
00010000
00100011
01000000
10000011
01000000
,
20000011
00000000
30010011
00000011
10000011
01000000
00100011
00010000
,
00100011
01000000
10000011
01000000
00100011
00010000
00100011
01000000
,
10010011
00000000
01100011
00000011
10000011
00000000
00110000
00000000
,
00010011
11000000
10000011
01100011
,
01100011
00000000
00000000
00000000
10000011
00010000
00110000
00000000
,
00010011
10000000
11000000
00000000
10000000
00100011
00000000
01100011
,
10010011
00000000
00000000
00000000
00000000
00000000
00000000
00000000
10000011
00000000
00000000
00010000
00000000
00000000
01000000
00000000
,
00100000
00000000
00000000
10000000
00000000
00000000
00010000
00000000
01000000
00000000
00000000
00100000
00000000
00000000
10000000
00000000
,
00010000
00000000
01000000
00000000
00100000
00000000
10000000
00000000
00010000
00000000
00000000
01000000
00000000
00000000
00100000
00000000
,
10000000
00000000
00000000
00100000
00000000
00000000
01000000
00000000
00010000
00000000
00000000
10000000
00000000
00000000
00100000
00000000
,
10000000
01000000
10000000
00010000
10000011
00000000
00010011
00000000
,
01000011
00100000
10000011
00000000
00010011
00000000
01000011
00000000
,
00100011
01000000
00010011
10000011
11000011
00000000
00000000
00000000
,
00110011
00000000
10010011
00000000
,
10000011
01000000
00100011
00010000
00100011
01000000
10000011
00000000
00000011
00000000
10010000
00000000
00000011
00000000
01100000
00000000
,
00000011
10010000
00000011
01100000
00000011
10010000
00000011
01100000
,
00000011
10010000
00000011
01100011
00000011
10010000
00000011
01100000
,
00000011
10010000
00000011
01100000
00000011
10010000
00000011
10010000
,
00000011
01100000
00000011
10010011
00000011
11000000
00000011
00110000
,
00000011
11000000
00000011
00110000
00000011
10100000
00000011
01010000
,
00000011
10100000
00000011
01010011
00000011
01100000
00000011
10010000
,
00000011
01100000
00000011
10010000
01100011
00000000
11110011
00000000
,
10000000
01000011
00100000
00010011
00010011
10000000
00100011
01000000
,
00010011
10000000
01000011
00100000
00010011
10000000
00010011
01000000
,
00100011
01000000
10000011
01000011
00100011
10000000
00010011
10000000
,
01000011
00100000
00010011
10000000
00100011
00000000
01000011
00000000
,
00010011
10000000
00100011
10000011
00010011
00100000
01000011
10000000
,
00100011
01000000
00010011
00100000
01000011
10000000
00100011
01000000
,
00100011
01000000
00100011
10000011
00010011
10000000
00100011
10000000
,
01000011
10000000
00010011
01000000
00100011
00000000
10000011
00000000
,
00010011
01000000
00100011
10000011
11000011
00000000
00110011
00000000
,
10010011
00000000
00000000
00000000
10000011
00010000
10000011
00010000
10000011
00000000
00000000
00000000
11111100
00000000
00000000
00000000
;

//---------------dance-single - K. Ward----------------
#NOTES:
     dance-single:
     K. Ward:
     Beginner:
     1:
     0.105,0.162,0.049,0.000,0.000,83.000,6.000,0.000,0.000,0.000:
















0000
0000
0000
0000
,
0000
0000
0000
0000
,
0000
0000
0000
0000
,
0000
0000
0000
0000
,
1000
0000
0000
0000
,
0001
0000
0000
0000
,
0001
0000
0000
0000
,
1000
0000
0000
0000
,
0001
0000
0000
0000
,
0001
0000
0000
0000
,
1000
0000
0000
0000
,
1000
0000
0000
0000
,
0010
0000
0000
0000
,
0010
0000
0000
0000
,
1000
0000
0000
0000
,
1000
0000
0000
0000
,
0001
0000
0000
0000
,
0010
0000
0000
0000
,
0001
0000
0000
0000
,
0010
0000
0000
0000
,
0001
0000
0000
0000
,
0010
0000
0000
0000
,
0001
0000
0000
0000
,
1000
0000
0000
0000
,
1001
0000
0000
0000
,
0000
0000
1000
0000
,
0000
0000
0100
0000
,
0000
0000
1000
0000
,
0000
0000
0010
0000
,
0000
0000
1000
0000
,
0000
0000
0100
0000
,
0000
0000
1000
0000
,
0000
0000
0001
0000
,
0000
0000
0010
0000
,
0100
0000
0010
0000
,
0100
0000
0010
0000
,
1000
0000
0010
0000
,
1000
0000
0001
0000
,
1000
0000
0001
0000
,
1000
0000
0010
0000
,
0100
0000
0010
0000
,
0100
0000
0001
0000
,
0000
0000
0000
0000
,
0000
0000
1000
0000
,
0000
0000
0000
0000
,
0000
0000
1001
0000
,
0000
0000
0000
0000
,
0000
0000
1001
0000
,
0000
0000
0000
0000
,
0000
0000
0110
0000
,
0000
0000
0000
0000
,
0000
0000
1000
0000
,
0001
0000
1000
0000
,
0000
0000
0001
0000
,
0000
0000
0000
0000
,
0000
0000
0001
0000
,
0000
0000
0000
0000
,
0000
0000
0001
0000
,
0001
0000
0001
0000
,
0000
0000
1000
0000
,
1000
0000
1000
0000
,
0000
0000
1000
0000
,
0000
0000
0100
0000
,
0000
0000
1000
0000
,
0000
0000
0100
0000
,
0000
0000
1000
0000
,
0000
0000
0100
0000
,
0000
0000
1000
0000
,
0000
0000
0001
0000
,
0000
0000
1000
0000
,
1000
0000
0100
0000
,
0000
0000
1000
0000
,
1000
0000
0100
0000
,
0000
0000
1000
0000
,
1000
0000
0100
0000
,
0000
0000
1000
0000
,
1000
0000
0001
0000
,
0000
0000
1001
0000
,
0000
0000
0000
1001
;

//---------------dance-single - SDO China----------------
#NOTES:
     dance-single:
     SDO China:
     Edit:
     16:
     1.000,1.000,1.000,0.000,1.000,863.000,147.000,0.000,0.000,5.000:
0001
0000
0100
0010
0000
0100
1000
0000
0001
0000
0010
0001
0000
0010
0100
0000
,
1000
0000
0001
0010
0000
0100
0010
0000
0100
1000
0000
0010
0001
0000
0100
0000
,
1000
0000
0010
0001
0000
0010
0100
0000
0001
0000
0100
0010
0000
1000
0100
0000
,
0001
0000
0100
0010
0000
0001
0010
0000
1000
0100
0000
0001
0010
0000
1000
0000
,
0101
0110
1100
0011
,
1010
0000
0110
0000
1001
0000
0101
0101
,
0101
1100
0110
1010
,
0101
0000
0000
0000
0000
0000
0000
0000
0011
0000
0000
0000
0000
0000
0000
0000
0000
0000
0000
0000
0000
0000
0010
0100
1001
0000
0000
0000
0000
0000
0100
0010
,
1001
0000
0010
0100
0011
1000
0100
0000
0101
0000
0010
0100
0011
0100
1000
0000
,
0110
0000
0001
0010
0101
1000
0100
0000
0101
0010
0000
0001
1100
0000
1100
0000
,
1100
0000
0010
0100
1001
0010
0001
0000
1100
0000
0010
0100
1001
0010
0001
0000
,
0110
0000
0000
0000
1000
0000
0100
0000
1001
0000
0010
0000
0100
0000
0000
0000
0101
0000
0010
0000
0000
0000
0100
0000
1010
0000
0000
0000
0100
0000
0001
0010
,
1100
0000
0010
0100
1001
0010
0001
0000
0110
0000
0001
0010
0101
1000
0100
0000
,
0011
0000
0100
0010
1100
0010
0001
0000
0110
1000
0000
0001
1010
0000
0100
0000
,
0011
0000
0010
0100
1001
0010
0001
0000
0110
0000
0001
0010
0101
1000
0100
0000
,
0011
0000
0000
0000
0100
0000
0010
0000
1001
0000
0010
0000
0100
0000
0000
0000
0101
0000
0010
0000
0000
0000
1000
0100
0011
0000
0000
0000
0010
0000
0100
0010
,
1001
0000
0100
0010
1100
0001
0010
0000
1001
0000
0100
0010
0101
1000
0100
0000
,
0001
0010
0100
0010
0000
0000
0000
0000
0100
0010
0001
0010
0000
0000
0000
0000
0010
0100
1000
0100
0000
0000
0000
0000
1000
0000
0000
0000
0010
0000
0000
0000
,
0001
0000
0010
0100
1010
0001
0010
0000
0101
0000
0010
0001
1010
0100
0010
0000
,
0100
0010
0100
1000
0000
0000
0000
0000
0001
0010
0100
0010
0000
0000
0000
0000
0001
0100
0010
0001
0000
0000
0000
0000
1100
0000
0000
0000
0001
0000
0010
0100
,
0011
0000
0100
1000
0101
0010
0100
0000
1001
0000
0001
0010
1001
0100
0010
0000
,
1100
0010
0100
1000
0000
0000
0000
0000
0101
0010
0001
0010
0000
0000
0000
0000
1001
0010
0100
1000
0000
0000
0000
0000
0011
0000
0000
0000
1000
0000
0000
0000
,
0110
0000
0100
1000
0101
0010
0001
0000
1100
0000
0010
0001
0110
0001
0010
0000
,
0101
0010
0100
1000
0000
0000
0000
0000
1100
0010
0001
0010
0000
0000
0000
0000
0101
0010
0100
1000
0000
0000
0000
0000
0110
0000
0000
0000
0001
0000
0010
0100
,
1010
0000
0000
0000
1111
0000
0000
0000
1111
0000
0000
0000
0010
0001
0100
0010
,
1000
0000
0011
0000
0100
0010
0001
0010
,
1000
0100
0010
0001
0010
0100
0010
0001
0010
0000
0100
0000
0010
0000
0001
0000
,
0100
1000
0100
0010
0001
0010
0100
0010
0001
0000
0010
0000
1000
0000
0010
0000
,
0100
0000
0001
0010
0000
0000
0001
0000
0000
0000
0100
0000
0010
0000
0001
0000
,
0010
0100
0010
0100
1000
0100
0010
0001
0010
0000
0100
0000
0010
0000
0001
0000
,
0100
0010
0001
0100
1000
0000
0001
0000
0010
0000
0001
0000
0100
0000
0010
0000
,
0001
0000
1000
0000
0010
0000
0100
0010
0001
0000
0000
0000
0000
0000
0000
0000
,
0100
1000
0000
0010
0100
0010
0001
0100
,
0010
0100
1000
0001
0100
0010
0001
0010
1000
0100
0010
0001
0010
0100
0010
0001
,
0010
0100
1000
0100
0010
0001
0010
0100
1000
0100
0010
0001
0010
0100
1000
0100
,
0010
0001
0010
0100
1000
0100
0010
0100
1000
0100
0010
0001
0010
0100
0010
0001
,
0010
0001
0010
0100
1000
0100
0010
0100
1000
0100
0010
0001
0010
0100
1000
0100
,
0010
0001
0010
0100
1000
0100
0010
0100
1000
0100
1000
0100
0010
0100
1000
0100
,
0010
0001
0010
0100
0010
0100
0010
0001
0010
0100
0010
0001
0010
0100
1000
0100
,
0010
0001
0010
0100
1000
0100
0010
0100
1000
0100
0010
0001
0010
0100
1000
0100
,
0010
0001
0010
0100
1000
0100
1000
0100
1000
0100
0010
0001
0010
0100
0010
0100
,
0010
0001
0010
0100
1000
0100
0010
0001
0100
0000
0010
0000
0001
0000
0010
0000
,
0100
0000
0000
0000
0010
0000
1000
0000
0001
0000
0000
0000
0000
0000
0001
0010
,
0100
0000
0000
0000
0010
0000
0000
0000
0010
1000
0100
0001
0010
0000
0001
0000
,
0010
0000
0000
0100
0000
0000
0010
0000
1000
0001
0010
0100
0010
0100
1000
0001
,
0010
0000
0000
0000
0100
0000
0010
1000
,
0001
0000
0000
0000
0010
0000
0100
0000
0010
0000
0000
0000
1000
0000
0010
0001
,
0100
0000
0000
0000
0010
0000
0001
0000
0100
0010
0001
1000
0100
0000
0010
0000
,
0100
0001
0010
0001
0100
0010
0100
0001
,
0100
0001
0010
0100
1000
0010
0001
0010
0100
0000
0000
0000
0010
0000
1000
0000
,
0100
0000
0000
0000
0010
0000
0001
0000
0010
0000
0000
0000
0000
0000
0100
0001
,
0010
0000
0000
0000
0100
0000
0000
0000
0100
0010
0001
1000
0100
0000
0010
0000
,
0100
0000
1000
0000
0001
0000
0010
0000
0100
0010
0001
0100
0001
0010
0100
1000
,
0100
0000
0000
0000
0000
0000
0000
0000
0010
0000
1000
0100
0000
1000
0001
0000
,
0010
0000
0100
0010
0000
0100
1000
0000
0001
0000
0010
0100
0000
1000
0100
0000
,
1000
0001
0000
0100
0010
0000
1000
0000
0001
0000
0100
0010
0000
0100
1000
0000
,
0010
0000
1000
0100
0000
0001
1000
0000
0010
0000
1000
0100
0000
0010
0100
0000
,
0001
1000
0000
0010
0100
0000
0001
0000
0010
0000
0100
0010
0000
0100
1000
0000
,
0001
0000
0010
0001
0000
0010
0100
0000
1000
0000
0001
0010
0000
0100
0010
0000
,
0100
1000
0000
0010
0001
0000
0100
0000
1000
0000
0010
0001
0000
0010
0100
0000
,
0001
0010
0100
0010
0000
1000
0100
0000
0001
0000
0000
0000
0000
0000
0000
0000
,
1000
0100
0010
0100
0010
0001
0010
0100
0011
0000
1000
0100
0011
1000
0100
0000
,
1010
0000
0100
0010
1001
0100
1000
0000
0101
0000
0010
0100
1010
0100
0010
0000
,
1001
0010
0000
0100
0011
0000
0011
0000
0011
0000
0010
0100
1010
0001
1000
0000
,
0110
0000
1000
0001
1100
0010
0001
0000
0110
0000
1000
0010
1001
0100
0001
0000
,
0110
0000
1000
0000
0000
0000
0100
0000
1010
0000
0000
0000
0000
0000
0010
0100
1000
0000
0000
0000
0001
0000
0010
0000
1100
0000
0001
0000
1000
0000
0000
0000
,
0011
0000
0100
0010
1001
0100
0001
0000
1010
0000
0010
0100
0011
1000
0100
0000
,
0101
1000
0000
0100
1010
0000
1010
0000
1010
0000
0100
0010
0101
1000
0010
0000
,
0101
0010
0100
1000
0011
0100
0001
0000
0110
0000
0100
1000
0011
0000
0100
0000
,
0000
0000
0000
0000
0000
0000
0100
0010
1001
0000
0000
0000
0000
0000
0100
0010
1001
0000
0000
0000
0100
0000
0010
0000
1100
0000
0001
0000
0010
0000
0000
0000
,
1001
0000
0000
0000
0100
0000
0010
0000
0101
0000
1000
0000
0100
0000
0000
0000
1001
0010
0100
0010
0000
0000
0000
0000
1100
0010
0001
0010
0000
0000
0000
0000
,
0011
0100
1000
0100
0000
0000
0000
0000
1100
0000
0000
0000
1100
0000
0000
0000
1100
0000
0000
0000
0010
0000
0100
0000
1010
0000
0001
0000
0010
0000
0000
0000
,
0101
0000
0000
0000
0010
0000
0001
0000
1010
0000
0100
0000
0010
0000
0000
0000
0101
0010
0100
1000
0000
0000
0000
0000
1001
0010
0100
0010
0000
0000
0000
0000
,
0011
0100
0010
0001
0000
0000
0000
0000
1100
0000
0000
0000
0001
0000
0010
0100
1010
0000
0000
0000
0001
0000
0010
0000
0101
0000
1000
0000
0100
0000
0000
0000
,
0011
0000
0000
0000
0100
0000
1000
0000
0101
0000
0010
0000
0001
0000
0000
0000
1010
0001
0010
0100
0000
0000
0000
0000
1100
0001
0010
0001
0000
0000
0000
0000
,
1001
0010
0001
0100
0000
0000
0000
0000
0110
0000
0000
0000
0110
0000
0000
0000
0110
0000
0000
0000
1000
0000
0010
0000
1100
0000
0001
0000
0010
0000
0000
0000
,
0110
0000
0000
0000
0010
0000
0001
0000
0110
0000
1000
0000
0100
0000
0000
0000
1001
0010
0100
0010
0000
0000
0000
0000
0101
0010
0001
0010
0000
0000
0000
0000
,
0011
0100
1000
0100
0000
0000
0000
0000
0101
0000
0000
0000
0010
0000
0000
0000
1111
0000
0000
0000
0000
0000
0000
0000
1111
0000
0000
0000
0000
0000
0000
0000
,
1111
0000
0000
0000
0001
0100
0010
1000
0100
0000
0000
0000
0110
0000
0000
0000
;
